请选择 进入手机版 | 继续访问电脑版

A9VG电玩部落论坛

昵称  找回密码
 注册
搜索
查看: 1457|回复: 0

[自抓][TAK+FLAC+AAC][EAC]无夜国度2原声带 [复制链接]

精华
0
帖子
6932
威望
1 点
积分
7257 点
注册时间
2007-1-17
最后登录
2019-6-20
发表于 2018-5-15 23:39:17 |显示全部楼层
这cd其实在游戏发售后几天拿到了各种原因没发布_(:3」∠)_ 不知道现在补上是不是太晚了

包含tak无损整轨 FLAC分轨无损 AAC

转载请注明发布人和原始地址

百度云
https://pan.baidu.com/s/1vVfFwnv6oxLwym4U4gIq4g 密码:7j8z

Exact Audio Copy V1.3 from 2. September 2016

EAC 抓取日志文件从15. 五月 2018, 20:11

未知艺术家 / 未知标题

使用驱动器  :TSSTcorpCDDVDW TS-L633F   Adapter: 1  ID: 0

读取模式      : 可靠Secure
使用精确流     : 是
清空音频缓存    : 否
使用 C2 指示器 : 否

读取偏移校正:               : 6
读取 Lead-In 和 Lead-Out : 否
用静音填充抓取中丢失偏移的采样       : 是
去除首尾静音块               : 否
在CRC 计算中使用了空样本       : 是
已用接口                  : Win NT 及 2000 本地 Win32 接口

所用输出模式: : 内部 WAV 函数
样本格式    : 44.100 Hz; 16 Bit; 立体声


已抓取 CD 的 TOC

     音轨 |    起始    |    长度    |  起始扇区  |  结束扇区  
    --------------------------------------------
      1 |  0:00.00 |  4:05.24 |      0 |  18398
      2 |  4:05.24 |  0:51.08 |  18399 |  22231
      3 |  4:56.32 |  2:12.00 |  22232 |  32131
      4 |  7:08.32 |  1:36.01 |  32132 |  39332
      5 |  8:44.33 |  2:19.38 |  39333 |  49795
      6 | 11:03.71 |  1:22.29 |  49796 |  55974
      7 | 12:26.25 |  1:51.38 |  55975 |  64337
      8 | 14:17.63 |  2:32.00 |  64338 |  75737
      9 | 16:49.63 |  2:09.48 |  75738 |  85460
     10 | 18:59.36 |  0:07.05 |  85461 |  85990
     11 | 19:06.41 |  2:20.42 |  85991 |  96532
     12 | 21:27.08 |  2:00.60 |  96533 | 105592
     13 | 23:27.68 |  3:06.63 | 105593 | 119605
     14 | 26:34.56 |  2:09.56 | 119606 | 129336
     15 | 28:44.37 |  2:10.02 | 129337 | 139088
     16 | 30:54.39 |  2:52.63 | 139089 | 152051
     17 | 33:47.27 |  1:45.74 | 152052 | 160000
     18 | 35:33.26 |  1:39.39 | 160001 | 167464
     19 | 37:12.65 |  3:07.31 | 167465 | 181520
     20 | 40:20.21 |  2:01.35 | 181521 | 190630
     21 | 42:21.56 |  2:33.20 | 190631 | 202125
     22 | 44:55.01 |  1:19.00 | 202126 | 208050
     23 | 46:14.01 |  0:44.37 | 208051 | 211387
     24 | 46:58.38 |  1:48.51 | 211388 | 219538
     25 | 48:47.14 |  1:45.00 | 219539 | 227413
     26 | 50:32.14 |  4:14.08 | 227414 | 246471
     27 | 54:46.22 |  0:34.00 | 246472 | 249021
     28 | 55:20.22 |  0:09.16 | 249022 | 249712
     29 | 55:29.38 |  0:11.67 | 249713 | 250604
     30 | 55:41.30 |  2:24.69 | 250605 | 261473
     31 | 58:06.24 |  2:09.00 | 261474 | 271148
     32 | 60:15.24 |  2:02.00 | 271149 | 280298
     33 | 62:17.24 |  1:47.21 | 280299 | 288344
     34 | 64:04.45 |  2:29.17 | 288345 | 299536
     35 | 66:33.62 |  1:25.37 | 299537 | 305948
     36 | 67:59.24 |  2:23.01 | 305949 | 316674
     37 | 70:22.25 |  1:26.52 | 316675 | 323176


范围状态及错误

已选择范围

     文件名 D:\Desktop\未知艺术家 - 未知标题.wav

     峰值电平 100.0 %
     抓取速度 7.2 X
     范围质量 99.9 %
     复制 CRC EE694DFB
     复制成功

没有错误发生


AccurateRip 摘要

音轨  1  精确地校准抓取  3)  [68C60F19]  (AR v2)
音轨  2  精确地校准抓取  3)  [5F5979A9]  (AR v2)
音轨  3  精确地校准抓取  3)  [1B396E69]  (AR v2)
音轨  4  精确地校准抓取  3)  [64477B97]  (AR v2)
音轨  5  精确地校准抓取  3)  [E44DBD36]  (AR v2)
音轨  6  精确地校准抓取  3)  [402A8A10]  (AR v2)
音轨  7  精确地校准抓取  3)  [6D009FA1]  (AR v2)
音轨  8  精确地校准抓取  3)  [0F3D3A83]  (AR v2)
音轨  9  精确地校准抓取  3)  [041E72BB]  (AR v2)
音轨 10  精确地校准抓取  3)  [8E4D95C6]  (AR v2)
音轨 11  精确地校准抓取  3)  [67F32747]  (AR v2)
音轨 12  精确地校准抓取  3)  [0E9266C5]  (AR v2)
音轨 13  精确地校准抓取  3)  [FBAB2D94]  (AR v2)
音轨 14  精确地校准抓取  3)  [020ABF87]  (AR v2)
音轨 15  精确地校准抓取  3)  [D0422872]  (AR v2)
音轨 16  精确地校准抓取  3)  [927FEC9B]  (AR v2)
音轨 17  精确地校准抓取  3)  [8208B024]  (AR v2)
音轨 18  精确地校准抓取  3)  [F27B2563]  (AR v2)
音轨 19  精确地校准抓取  3)  [1BD67467]  (AR v2)
音轨 20  精确地校准抓取  3)  [1FB548E1]  (AR v2)
音轨 21  精确地校准抓取  3)  [156D7EC5]  (AR v2)
音轨 22  精确地校准抓取  3)  [7012EE3D]  (AR v2)
音轨 23  精确地校准抓取  3)  [02951547]  (AR v2)
音轨 24  精确地校准抓取  3)  [1DDD0F87]  (AR v2)
音轨 25  精确地校准抓取  3)  [255D2243]  (AR v2)
音轨 26  精确地校准抓取  3)  [1FBE5A15]  (AR v2)
音轨 27  精确地校准抓取  3)  [A399B433]  (AR v2)
音轨 28  精确地校准抓取  3)  [DB1F5927]  (AR v2)
音轨 29  精确地校准抓取  3)  [55D418FA]  (AR v2)
音轨 30  精确地校准抓取  3)  [E85EA58B]  (AR v2)
音轨 31  精确地校准抓取  3)  [45A20B26]  (AR v2)
音轨 32  精确地校准抓取  3)  [3A90688E]  (AR v2)
音轨 33  精确地校准抓取  3)  [F310BDF7]  (AR v2)
音轨 34  精确地校准抓取  3)  [41AD953C]  (AR v2)
音轨 35  精确地校准抓取  3)  [68C050DA]  (AR v2)
音轨 36  精确地校准抓取  3)  [FDB8F3F8]  (AR v2)
音轨 37  精确地校准抓取  3)  [F3D544C7]  (AR v2)

所有音轨精确校准抓取

状态报告结尾

---- CUETools DB Plugin V2.1.6

[CTDB TOCID: uBHan2_P6bofbULWk00dWTDlHNI-] found
Submit result: already submitted
Track | CTDB Status
  1   | (60/60) Accurately ripped
  2   | (60/60) Accurately ripped
  3   | (60/60) Accurately ripped
  4   | (60/60) Accurately ripped
  5   | (60/60) Accurately ripped
  6   | (60/60) Accurately ripped
  7   | (60/60) Accurately ripped
  8   | (60/60) Accurately ripped
  9   | (60/60) Accurately ripped
10   | (60/60) Accurately ripped
11   | (59/60) Accurately ripped
12   | (60/60) Accurately ripped
13   | (60/60) Accurately ripped
14   | (60/60) Accurately ripped
15   | (60/60) Accurately ripped
16   | (60/60) Accurately ripped
17   | (60/60) Accurately ripped
18   | (60/60) Accurately ripped
19   | (60/60) Accurately ripped
20   | (60/60) Accurately ripped
21   | (60/60) Accurately ripped
22   | (60/60) Accurately ripped
23   | (60/60) Accurately ripped
24   | (60/60) Accurately ripped
25   | (60/60) Accurately ripped
26   | (60/60) Accurately ripped
27   | (60/60) Accurately ripped
28   | (60/60) Accurately ripped
29   | (60/60) Accurately ripped
30   | (60/60) Accurately ripped
31   | (60/60) Accurately ripped
32   | (60/60) Accurately ripped
33   | (60/60) Accurately ripped
34   | (60/60) Accurately ripped
35   | (60/60) Accurately ripped
36   | (60/60) Accurately ripped
37   | (60/60) Accurately ripped
1

查看全部评分

您需要登录后才可以回帖 登录 | 注册

Archiver|手机版|A9VG电玩部落 ( 渝ICP备14007792号-11 渝网文[2015]1041-1042号 )

GMT+8, 2019-6-20 07:02 , Processed in 0.055136 second(s), 10 queries , Memcache On.

Powered by Discuz! X2

© 2001-2011 Comsenz Inc.

扫描二维码

下载 A9VG 客户端(iOS, Android)

回顶部