A9VG电玩部落论坛

 找回密码
 注册
搜索
楼主: 天神十三煞

维塔所支持的视频规范说明

[复制链接]

版主

简称CD

精华
6
帖子
19173
威望
32 点
积分
22510 点
种子
67 点
注册时间
2010-5-7
最后登录
2024-4-3
发表于 2012-8-29 23:07  ·  江苏 | 显示全部楼层
史莱姆KING 发表于 2012-4-17 12:48
视频的缩略图

我自己测试

mp3tag,foobar都可编辑

求败者

ララララ ララララ

精华
12
帖子
25457
威望
11 点
积分
28005 点
种子
12 点
注册时间
2004-5-23
最后登录
2022-3-11
发表于 2012-8-31 06:56  ·  北京 | 显示全部楼层
本帖最后由 史莱姆KING 于 2012-8-31 07:11 编辑
chaosdemon 发表于 2012-8-29 23:07
mp3tag,foobar都可编辑


试过,没用

不过我测试的是AAC编码的M4A格式(后缀改成MP4)

我擦,改回m4a后缀之后能显示信息了,图片也搞定了

可惜还是不能直接支持苹果无损的m4a。。。。。

精华
0
帖子
1303
威望
0 点
积分
1423 点
种子
12 点
注册时间
2007-11-15
最后登录
2024-6-2
发表于 2013-9-17 19:17  ·  福建 | 显示全部楼层
猴子 都可以学会的教程

精华
0
帖子
1943
威望
0 点
积分
2758 点
种子
62 点
注册时间
2008-3-28
最后登录
2024-6-20
发表于 2013-9-17 23:30  ·  浙江 | 显示全部楼层
好厉害。。。。。。

求败者

ララララ ララララ

精华
12
帖子
25457
威望
11 点
积分
28005 点
种子
12 点
注册时间
2004-5-23
最后登录
2022-3-11
发表于 2013-12-19 22:39  ·  北京 | 显示全部楼层
话说,现在PSV视频支持到什么情况了,我记得说是支持到1080P

但是我自己转的视频,提示不支持- -

General
Complete name                            : F:\PSV\Videos\01.mp4
Format                                   : MPEG-4
Format profile                           : Base Media / Version 2
Codec ID                                 : mp42
File size                                : 183 MiB
Duration                                 : 3mn 28s
Overall bit rate mode                    : Variable
Overall bit rate                         : 7 399 Kbps
Encoded date                             : UTC 2013-12-19 14:35:24
Tagged date                              : UTC 2013-12-19 14:35:24

Video
ID                                       : 1
Format                                   : AVC
Format/Info                              : Advanced Video Codec
Format profile                           : High@L4.0
Format settings, CABAC                   : Yes
Format settings, ReFrames                : 4 frames
Codec ID                                 : avc1
Codec ID/Info                            : Advanced Video Coding
Duration                                 : 3mn 27s
Bit rate                                 : 7 081 Kbps
Maximum bit rate                         : 22.4 Mbps
Width                                    : 1 920 pixels
Height                                   : 1 080 pixels
Display aspect ratio                     : 16:9
Frame rate mode                          : Constant
Frame rate                               : 60.000 fps
Color space                              : YUV
Chroma subsampling                       : 4:2:0
Bit depth                                : 8 bits
Scan type                                : Progressive
Bits/(Pixel*Frame)                       : 0.057
Stream size                              : 176 MiB (96%)
Title                                    : Video
Writing library                          : x264 core 133 r2334 a3ac64b
Encoding settings                        : cabac=1 / ref=3 / deblock=1:0:0 / analyse=0x3:0x113 / me=hex / subme=7 / psy=1 / psy_rd=1.00:0.00 / mixed_ref=1 / me_range=16 / chroma_me=1 / trellis=1 / ***dct=1 / cqm=0 / deadzone=21,11 / fast_pskip=1 / chroma_qp_offset=-2 / threads=12 / lookahead_threads=2 / sliced_threads=0 / nr=0 / decimate=1 / interlaced=0 / bluray_compat=0 / constrained_intra=0 / bframes=3 / b_pyramid=2 / b_adapt=1 / b_bias=0 / direct=1 / weightb=1 / open_gop=0 / weightp=2 / keyint=250 / keyint_min=25 / scenecut=40 / intra_refresh=0 / rc_lookahead=40 / rc=crf / mbtree=1 / crf=23.0 / qcomp=0.60 / qpmin=0 / qpmax=69 / qpstep=4 / ip_ratio=1.40 / aq=1:1.00
Encoded date                             : UTC 2013-12-19 14:29:10
Tagged date                              : UTC 2013-12-19 14:35:25

Audio
ID                                       : 2
Format                                   : AAC
Format/Info                              : Advanced Audio Codec
Format profile                           : LC
Codec ID                                 : 40
Duration                                 : 3mn 28s
Bit rate mode                            : Variable
Bit rate                                 : 314 Kbps
Maximum bit rate                         : 338 Kbps
Channel count                            : 2 channels
Channel positions                        : Front: L R
Sampling rate                            : 48.0 KHz
Compression mode                         : Lossy
Delay relative to video                  : 33ms
Stream size                              : 7.79 MiB (4%)
Title                                    : Audio
Encoded date                             : UTC 2013-12-19 14:35:25
Tagged date                              : UTC 2013-12-19 14:35:25

求败者

ララララ ララララ

精华
12
帖子
25457
威望
11 点
积分
28005 点
种子
12 点
注册时间
2004-5-23
最后登录
2022-3-11
发表于 2013-12-19 22:40  ·  北京 | 显示全部楼层
相同的这个视频,扔到ipad mini2就能放
NG6

终结者

天降小裤裤

精华
0
帖子
10131
威望
0 点
积分
10563 点
种子
12 点
注册时间
2010-12-31
最后登录
2021-6-1
发表于 2013-12-20 16:28  ·  陕西 | 显示全部楼层

RE: 维塔所支持的视频规范说明

史莱姆KING 发表于 2013-12-19 22:39
话说,现在PSV视频支持到什么情况了,我记得说是支持到1080P

但是我自己转的视频,提示不支持- -

把等级换成3。0应该就行

求败者

ララララ ララララ

精华
12
帖子
25457
威望
11 点
积分
28005 点
种子
12 点
注册时间
2004-5-23
最后登录
2022-3-11
发表于 2013-12-20 16:33  ·  北京 | 显示全部楼层
NG6 发表于 2013-12-20 16:28
把等级换成3。0应该就行

好的,我今晚回去再试试看

ipad的能支持到4.2
但是4.2.2就没戏了

求败者

ララララ ララララ

精华
12
帖子
25457
威望
11 点
积分
28005 点
种子
12 点
注册时间
2004-5-23
最后登录
2022-3-11
发表于 2013-12-21 13:33  ·  北京 | 显示全部楼层
NG6 发表于 2013-12-20 16:28
把等级换成3。0应该就行

实测还是不行。3.0也不识别

但是这个就行,4.2都可以
当然,1080P 60FPS的,PSV上卡出翔

General
Complete name                            : F:\PSV\Videos\05.megui+aac.mp4
Format                                   : MPEG-4
Format profile                           : Base Media
Codec ID                                 : isom
File size                                : 136 MiB
Duration                                 : 3mn 37s
Overall bit rate mode                    : Variable
Overall bit rate                         : 5 235 Kbps
Encoded date                             : UTC 2013-12-21 01:45:25
Tagged date                              : UTC 2013-12-21 01:45:25

Video
ID                                       : 1
Format                                   : AVC
Format/Info                              : Advanced Video Codec
Format profile                           : High@L4.2
Format settings, CABAC                   : Yes
Format settings, ReFrames                : 4 frames
Codec ID                                 : avc1
Codec ID/Info                            : Advanced Video Coding
Duration                                 : 3mn 37s
Bit rate                                 : 5 054 Kbps
Maximum bit rate                         : 11.4 Mbps
Width                                    : 1 920 pixels
Height                                   : 1 080 pixels
Display aspect ratio                     : 16:9
Frame rate mode                          : Constant
Frame rate                               : 60.000 fps
Color space                              : YUV
Chroma subsampling                       : 4:2:0
Bit depth                                : 8 bits
Scan type                                : Progressive
Bits/(Pixel*Frame)                       : 0.041
Stream size                              : 131 MiB (97%)
Writing library                          : x264 core 140 r2377 1ca7bb9
Encoding settings                        : cabac=1 / ref=3 / deblock=1:0:0 / analyse=0x3:0x113 / me=hex / subme=7 / psy=1 / psy_rd=1.00:0.00 / mixed_ref=1 / me_range=16 / chroma_me=1 / trellis=1 / ***dct=1 / cqm=0 / deadzone=21,11 / fast_pskip=1 / chroma_qp_offset=-2 / threads=12 / lookahead_threads=2 / sliced_threads=0 / nr=0 / decimate=1 / interlaced=0 / bluray_compat=0 / constrained_intra=0 / bframes=3 / b_pyramid=2 / b_adapt=1 / b_bias=0 / direct=1 / weightb=1 / open_gop=0 / weightp=2 / keyint=600 / keyint_min=60 / scenecut=40 / intra_refresh=0 / rc_lookahead=40 / rc=crf / mbtree=1 / crf=23.0 / qcomp=0.60 / qpmin=0 / qpmax=69 / qpstep=4 / ip_ratio=1.40 / aq=1:1.00
Encoded date                             : UTC 2013-12-21 01:45:25
Tagged date                              : UTC 2013-12-21 01:45:26

Audio
ID                                       : 2
Format                                   : AAC
Format/Info                              : Advanced Audio Codec
Format profile                           : LC
Codec ID                                 : 40
Duration                                 : 3mn 37s
Bit rate mode                            : Variable
Bit rate                                 : 178 Kbps
Maximum bit rate                         : 189 Kbps
Channel count                            : 2 channels
Channel positions                        : Front: L R
Sampling rate                            : 48.0 KHz
Compression mode                         : Lossy
Stream size                              : 4.61 MiB (3%)
Encoded date                             : UTC 2013-12-21 01:36:15
Tagged date                              : UTC 2013-12-21 01:45:26
NG6

终结者

天降小裤裤

精华
0
帖子
10131
威望
0 点
积分
10563 点
种子
12 点
注册时间
2010-12-31
最后登录
2021-6-1
发表于 2013-12-21 13:44  ·  北京 | 显示全部楼层
史莱姆KING 发表于 2013-12-21 13:33
实测还是不行。3.0也不识别

但是这个就行,4.2都可以

那就版清楚了,推荐按照这个帖子说的压视频
http://bbs.cngba.com/thread-19628912-1-1.html
您需要登录后才可以回帖 登录 | 注册

本版积分规则

Archiver|手机版|A9VG电玩部落 川公网安备 51019002005286号

GMT+8, 2024-6-20 14:05 , Processed in 0.192014 second(s), 15 queries , Redis On.

Powered by Discuz! X3.4

Copyright © 2001-2020, Tencent Cloud.

返回顶部